#TITLE:GOD DIVA;
#SUBTITLE:- .hack-Roots;
#ARTIST:ALI PROJECT;
#TITLETRANSLIT:;
#SUBTITLETRANSLIT:;
#ARTISTTRANSLIT:;
#CREDIT:True Ancestor (^_^);
#BANNER:hackbanner.png;
#BACKGROUND:hack1.png;
#LYRICSPATH:;
#CDTITLE:trueancestor.png;
#MUSIC:HACK_ROOTS_-_GOD_DIVA.mp3;
#OFFSET:-0.480;
#SAMPLESTART:77.953;
#SAMPLELENGTH:21.080;
#SELECTABLE:YES;
#BPMS:0.000=185.750,74.000=125.000,519.250=62.500,521.000=62.500;
#STOPS:519.000=0.840
;
#BGCHANGES:;
// cache tags:
#FIRSTBEAT:2.500;
#LASTBEAT:530.250;
#SONGFILENAME:songs/Otaku's Dream 3rd Anime Mix/[TrueAncestor] God Diva - .hack-Roots/God Diva.sm;
#HASMUSIC:1;
#HASBANNER:1;
#MUSICLENGTH:255.221;
// end cache tags

//---------------dance-single - ----------------
#NOTES:
     dance-single:
     :
     Challenge:
     11:
     0.997,0.987,1.000,0.298,0.862,1321.000,370.000,76.000,0.000,0.000:

















0000
0000
0000
0000
0000
1001
0100
0001
,
1100
0001
1000
1010
0100
0001
0110
0100
,
1000
0101
0100
0010
1100
0001
0100
0011
,
1000
0100
1010
0001
0100
1010
0100
1000
,
0011
0100
0010
1100
0100
1000
0011
0010
,
0100
1010
0001
0100
1010
0100
0010
1001
,
0000
0000
0000
0220
0000
0000
0330
0000
0000
1100
0000
0000
1010
0000
0000
1100
,
0000
0000
1001
0000
0000
1010
0000
0000
1100
0000
0000
1010
0000
0000
1001
0000
,
0000
0202
0000
0000
0000
0000
0000
0000
0000
0000
0000
0000
0000
0000
0000
0000
,
0303
0000
0000
0000
0000
0000
0020
0000
0000
2000
0000
3000
0002
0000
0003
0200
0030
0300
0011
0000
0000
0000
0000
0000
0101
0000
0000
0000
0000
0000
0011
0000
,
0000
0000
1001
0000
0000
0101
0000
0000
0011
0000
0000
0101
0000
0000
1001
0000
,
0000
2200
0000
0000
0000
0000
0000
0000
0000
0000
0000
0000
0000
0000
0000
0000
,
3300
0000
0000
0000
2000
0000
0000
0200
0000
0300
0020
0000
0030
3002
0000
0003
1100
0000
0000
0000
0000
0000
0110
0000
0000
0000
0000
0000
1100
0000
0000
0000
,
0000
0110
0000
0000
1001
0000
0000
0110
0000
0000
0101
0000
0000
0110
0000
0000
,
0011
0000
0000
0110
0000
0000
1001
0000
0000
0110
0000
0000
1100
0000
0000
1001
,
0000
0000
0110
0000
0000
0011
0000
0000
1100
0000
0000
0101
0000
0000
0110
0000
,
0000
1001
0000
0000
0110
0000
0000
1100
0000
0000
0101
0000
0000
1100
0000
0000
,
0220
0000
0000
0000
0000
0000
0000
0000
0330
0000
0000
0000
1010
0000
0000
1001
0000
0000
0110
0000
0000
0011
0000
0000
2100
0000
0000
0000
0000
0000
3001
0000
,
0000
0000
0000
0100
0000
0010
0000
0001
0000
0100
0000
0010
0000
0000
0000
0000
0110
0000
0000
0000
1000
0000
0000
0000
0100
0000
0010
0100
0010
0000
0001
0000
,
1000
0000
0001
0000
0100
0000
0000
0000
0010
0000
0100
0000
0001
0000
0000
0000
1010
0000
0000
0000
0010
0000
0000
0000
1000
0000
0010
1000
0010
0000
0100
0000
,
1000
0000
0100
0000
0001
0000
0000
0000
0010
0000
1000
0000
0001
0000
0000
0000
1001
0000
0000
0000
0001
0000
0000
0000
1000
0000
0010
0001
0010
0000
0010
0000
,
0100
0000
0000
0000
0000
0000
0000
0000
0000
0000
0000
0000
0001
0000
0000
0000
0000
0000
0000
0000
0000
0000
0000
0000
0100
0000
0000
0000
0000
0000
0000
0000
0000
0000
0000
0000
0000
0000
0000
0000
0000
0000
0000
0000
0000
0000
0000
0000
0010
0000
0000
0000
0000
0000
0000
0000
0000
0000
0000
0000
0100
0000
0000
0000
0000
0000
0000
0000
0000
0000
0000
0000
0010
0000
0000
0000
0000
0000
0000
0000
0000
0000
0000
0000
0000
0000
0000
0000
0000
0000
0000
0000
0000
0000
0000
0000
4400
0300
0000
0000
0000
0000
0000
0000
0000
0000
0000
0000
0100
0000
0000
0000
0000
0000
0000
0000
0000
0000
0000
0000
0100
0000
0000
0000
0000
0000
0000
0000
0000
0000
0000
0000
0100
0000
0000
0000
0000
0000
0000
0000
0000
0000
0000
0000
0100
0000
0000
0000
0000
0000
0000
0000
0000
0000
0000
0000
0100
0000
0000
0000
0000
0000
0000
0000
0000
0000
0000
0000
0100
0000
0000
0000
0000
0000
0000
0000
0000
0000
0000
0000
3100
0000
0000
0000
0000
0000
0000
0000
0000
0000
0000
0000
,
0044
0030
0000
0000
0000
0000
0000
0000
0000
0000
0000
0000
0010
0000
0000
0000
0000
0000
0000
0000
0000
0000
0000
0000
0010
0000
0000
0000
0000
0000
0000
0000
0000
0000
0000
0000
0010
0000
0000
0000
0000
0000
0000
0000
0000
0000
0000
0000
0010
0000
0000
0000
0000
0000
0000
0000
0000
0000
0000
0000
0010
0000
0000
0000
0000
0000
0000
0000
0000
0000
0000
0000
0010
0000
0000
0000
0000
0000
0000
0000
0000
0000
0000
0000
0010
0000
0000
0000
0000
0000
0000
0000
0000
0000
0000
0000
0103
0000
0000
0000
0000
0000
0000
0000
0000
0000
0000
0000
0000
0000
0000
0000
0000
0000
0000
0000
0000
0000
0000
0000
0010
0000
0000
0000
0000
0000
0000
0000
0000
0000
0000
0000
0100
0000
0000
0000
0000
0000
0000
0000
0000
0000
0000
0000
1000
0000
0000
0000
0000
0000
0000
0000
0000
0000
0000
0000
0000
0000
0000
0000
0000
0000
0000
0000
0000
0000
0000
0000
1010
0000
0000
0000
0000
0000
0000
0000
0000
0000
0000
0000
0000
0000
0000
0000
0000
0000
0000
0000
0000
0000
0000
0000
,
0110
0000
0001
0000
0010
0000
0100
0000
1100
0000
0100
0000
0010
0000
0001
0010
,
1000
0001
0110
0010
1001
0001
1100
0010
,
1010
0000
0010
0000
0101
0000
0001
0000
0010
0010
1000
1000
0001
0001
0100
0100
,
0010
0010
0100
0100
1000
1000
0001
0001
0100
0000
0100
0010
1000
0000
0001
0000
,
1100
0000
0010
0000
0100
0000
1000
0000
0011
0000
0100
0000
1000
0000
0010
0100
,
0001
0000
0101
0000
0101
0000
1000
0010
0100
0000
1100
0000
1100
0000
0001
0010
,
0100
0000
0101
0000
0101
0000
0100
0001
1000
0000
0110
0000
0110
0000
0101
0000
,
1000
0010
0000
0100
0001
0000
0000
0000
0000
0000
0000
0000
0000
0000
0000
0000
1100
0000
0000
0000
0010
0000
0100
0000
0001
0000
0000
0000
1001
0000
0000
0000
,
0101
0000
0010
0000
1001
0000
1000
0000
0110
0000
0001
0000
1100
0000
0010
0100
,
1000
0100
0011
1000
0110
1000
1010
0100
,
1001
0000
0100
0000
0110
0000
1100
0000
0040
0000
0000
0430
0000
0000
0304
0000
,
4003
0000
0000
3400
0000
0000
1300
0000
0011
0000
0100
0000
1001
0000
0000
0010
,
0100
0000
1001
0000
0011
0000
0100
0000
1010
0000
0100
0000
1010
0000
0010
0100
,
0001
0000
0101
0000
0101
0000
1000
0010
0001
0000
0011
0000
0011
0000
0100
0001
,
1000
0000
0110
0000
0110
0000
1000
0001
0100
0000
1001
0000
0110
0000
1001
0000
,
0110
1001
0110
0000
1010
0100
1001
0010
,
0220
0330
0011
0100
2100
0002
3003
0000
,
1001
0000
0100
0000
1200
0000
0020
0000
0330
0000
0001
1000
0001
0000
0010
0000
,
0101
0000
1000
0000
0110
0000
0001
1000
0010
0000
1000
0000
0101
0000
1000
0001
,
0100
2020
0000
3030
1001
0010
0110
0100
,
2020
3030
0011
0001
0102
2000
3003
0000
,
0110
0100
0110
0010
0110
1000
1001
0100
,
0011
0000
0100
0000
1100
0000
0001
0000
0210
0000
0000
0010
0320
0000
0000
1000
,
2030
0000
0000
0001
0002
0000
3003
0000
1100
0000
0010
0001
0200
0000
0000
0000
,
0010
0000
0010
0000
0310
0000
0000
0000
0011
0000
1000
0001
0100
1000
0001
1000
,
0020
0000
0000
0000
0130
0000
0000
0000
0011
0000
1000
0100
1000
0001
0100
0010
,
0100
0000
0110
0000
0220
0000
0000
0330
1001
0000
0001
0010
0100
1000
0100
0010
,
0002
0000
0000
0000
1003
0000
0000
0000
1010
0000
0010
1000
0010
0000
0100
0001
,
0100
0000
0010
1000
0010
0000
0100
0001
0100
0010
0001
1000
0100
1000
0010
0100
,
0001
0000
1010
0000
0110
0000
0101
0000
1010
0000
0100
0010
0100
0010
1000
0001
,
0100
0000
0010
0001
0200
0000
0300
0010
0100
0010
1000
0001
0100
0001
0100
0001
,
0200
0000
0000
0000
0310
0000
0000
0000
1000
0100
1000
0001
0100
0001
0010
0100
,
0010
1000
0010
1000
0100
1000
0100
0001
0100
0001
0010
0001
0010
1000
0001
1000
,
0100
0010
0100
0010
1001
0000
0011
0000
1010
0100
0010
0100
0001
1000
0001
0100
,
0001
0100
0010
1000
0100
1000
0100
0010
0100
0001
0100
0010
0100
1000
0001
0010
,
0100
0000
0010
0000
0000
0000
0100
0000
0010
0000
0000
0000
1000
0000
0001
0000
1000
0000
0000
0000
0110
0000
0000
0000
0001
0000
1000
0001
1000
0000
0100
0000
,
0010
0000
0100
0000
0010
0000
0000
0000
1000
0000
0010
0000
1000
0000
0000
0000
0011
0000
0000
0000
1010
0000
0000
0000
0100
0000
0001
0010
1000
0000
0100
0000
,
0010
0000
1000
0000
0001
0000
0000
0000
0100
0000
0001
0000
1000
0000
0000
0000
0110
0000
0000
0000
1100
0000
0000
0000
1000
0000
0001
1000
0100
0000
0001
0000
,
1000
0000
0000
0000
0000
0000
0000
0000
0000
0000
0000
0000
0100
0000
0000
0000
0000
0000
0000
0000
0000
0000
0000
0000
0001
0000
0000
0000
0000
0000
0000
0000
0000
0000
0000
0000
0000
0000
0000
0000
0000
0000
0000
0000
0000
0000
0000
0000
0010
0000
0000
0000
0000
0000
0000
0000
0000
0000
0000
0000
0100
0000
0000
0000
0000
0000
0000
0000
0000
0000
0000
0000
1000
0000
0000
0000
0000
0000
0000
0000
0000
0000
0000
0000
0000
0000
0000
0000
0000
0000
0000
0000
0000
0000
0000
0000
4040
3000
0000
0000
0000
0000
0000
0000
0000
0000
0000
0000
0001
0000
0000
0000
0000
0000
0000
0000
0000
0000
0000
0000
0001
0000
0000
0000
0000
0000
0000
0000
0000
0000
0000
0000
0001
0000
0000
0000
0000
0000
0000
0000
0000
0000
0000
0000
0001
0000
0000
0000
0000
0000
0000
0000
0000
0000
0000
0000
0001
0000
0000
0000
0000
0000
0000
0000
0000
0000
0000
0000
0001
0000
0000
0000
0000
0000
0000
0000
0000
0000
0000
0000
0031
0000
0000
0000
0000
0000
0000
0000
0000
0000
0000
0000
,
0404
0300
0000
0000
0000
0000
0000
0000
0000
0000
0000
0000
1000
0000
0000
0000
0000
0000
0000
0000
0000
0000
0000
0000
1000
0000
0000
0000
0000
0000
0000
0000
0000
0000
0000
0000
1000
0000
0000
0000
0000
0000
0000
0000
0000
0000
0000
0000
1000
0000
0000
0000
0000
0000
0000
0000
0000
0000
0000
0000
1000
0000
0000
0000
0000
0000
0000
0000
0000
0000
0000
0000
1000
0000
0000
0000
0000
0000
0000
0000
0000
0000
0000
0000
1003
0000
0000
0000
0000
0000
0000
0000
0000
0000
0000
0000
0100
0000
0000
0000
0000
0000
0000
0000
0000
0000
0000
0000
1000
0000
0000
0000
0000
0000
0000
0000
0000
0000
0000
0000
0100
0000
0000
0000
0000
0000
0000
0000
0000
0000
0000
0000
0000
0000
0000
0000
0000
0000
0000
0000
0000
0000
0000
0000
0011
0000
0000
0000
0000
0000
0000
0000
0000
0000
0000
0000
0000
0000
0000
0000
0000
0000
0000
0000
0000
0000
0000
0000
0100
0000
0000
0000
0000
0000
0000
0000
0000
0000
0000
0000
0000
0000
0000
0000
0000
0000
0000
0000
0000
0000
0000
0000
,
0011
0000
1000
0001
0100
0000
0001
0000
1100
0000
0010
0100
0001
0000
0100
0000
,
1001
0000
0100
1000
0001
0000
0100
0000
1010
0000
0010
0100
1000
0000
0100
0000
,
0010
0000
0000
0000
0000
0000
0000
0000
0000
0000
0000
0000
0001
0000
0000
0000
0000
0000
0000
0000
0000
0000
0000
0000
0010
0000
0000
0000
0000
0000
0000
0000
0000
0000
0000
0000
0000
0000
0000
0000
0000
0000
0000
0000
0000
0000
0000
0000
0110
0000
0000
0000
0000
0000
0000
0000
0000
0000
0000
0000
0000
0000
0000
0000
0000
0000
0000
0000
0000
0000
0000
0000
1000
0000
0000
0000
0000
0000
0000
0000
0000
0000
0000
0000
0000
0000
0000
0000
0000
0000
0000
0000
0000
0000
0000
0000
4004
3000
0000
0000
0000
0000
0000
0000
0000
0000
0000
0000
0000
0000
0000
0000
0000
0000
0000
0000
0000
0000
0000
0000
0000
0000
0000
0000
0000
0000
0000
0000
0000
0000
0000
0000
0403
0000
0000
0000
0000
0000
0000
0000
0000
0000
0000
0000
0000
0000
0000
0000
0000
0000
0000
0000
0000
0000
0000
0000
0000
0000
0000
0000
0000
0000
0000
0000
0000
0000
0000
0000
0340
0000
0000
0000
0000
0000
0000
0000
0000
0000
0000
0000
0000
0000
0000
0000
0000
0000
0000
0000
0000
0000
0000
0000
,
4030
0000
0000
3004
0000
0000
0103
0000
1010
0000
0100
0001
1000
0000
1000
0000
,
0101
0000
0010
1000
0001
0000
0100
0000
0010
0001
0100
0000
1010
0000
0010
0100
,
0001
0000
0100
0000
1001
0000
0010
0100
0001
0000
0100
0000
1100
0000
0010
1000
,
0100
0000
0001
0000
0011
0000
0100
1000
0010
0000
0100
0000
1010
0000
0100
0000
,
0010
0100
0000
0100
0010
0000
1000
0100
0011
0000
0011
0000
0110
0000
0110
0000
,
1010
0001
1010
1100
0110
1001
0100
0010
,
1010
0110
1001
0011
0100
0011
0110
1100
,
1001
0110
1010
0101
0011
0110
0110
1010
,
0101
1010
1001
0101
0011
1100
0110
1100
,
1010
0001
1100
1100
1010
0011
0100
0010
,
1100
0110
1001
0110
0010
0100
0011
1001
,
0110
0000
1010
0000
0110
0000
1000
0000
0010
0000
0100
1000
0001
0000
0001
0010
,
0100
0000
1000
0100
0010
0000
0010
0100
0001
0000
0010
0001
0010
0000
1100
0000
,
0101
0000
0110
0000
1001
0000
0011
0000
1000
0000
0010
0100
1000
0100
0001
0100
,
0010
0000
0110
0000
1010
0000
0101
0000
0110
0000
0001
0010
0001
0100
1000
0100
,
1000
0000
0110
0000
0011
0000
1010
0000
0101
0000
1000
0001
0100
0010
0100
1000
,
0001
0000
0110
0000
1010
0000
1100
0000
0110
0000
1000
0100
0010
0000
0001
0010
,
0100
0000
1000
0100
0010
0000
0001
0010
0100
1000
0100
0010
0001
0010
0100
1000
,
0100
0000
0010
0001
0010
0000
0100
0010
0100
0000
1000
0100
1000
0010
0100
0001
,
0100
0000
0010
0100
0020
0000
0000
0130
1000
0001
0010
1000
0100
0001
0010
1000
,
0100
0000
1010
0000
0101
0000
0011
0000
1010
0100
0010
1000
0100
1000
0001
0100
,
0001
0100
0010
1000
0010
0100
0001
0100
0001
0010
0001
0010
1000
0010
1000
0100
,
1000
0001
1000
0100
0001
0100
1000
0100
0010
0100
0001
0100
0010
1000
0001
1000
,
0001
1000
0100
0010
0001
1000
0001
0010
0100
1000
0001
1000
0001
0010
0100
1000
,
0001
1000
0100
0010
0001
1000
0001
0010
1000
0100
0010
0000
1100
0000
1001
0000
,
0010
0001
0010
0001
0010
0001
0010
0001
0100
1000
0100
0000
0011
0000
0110
0000
,
1000
0000
0000
0100
0000
0000
1000
0000
0000
0100
0000
0000
1000
0000
0000
0100
0000
0000
1000
0000
0000
0100
0000
0000
1010
0000
0000
0000
0001
0000
0000
0000
0100
0000
0000
0000
1001
0000
0000
0000
0100
0000
0000
0000
1000
0000
0000
0000
,
0101
0100
0010
1100
0001
0100
1001
0010
0100
0110
0100
0001
,
1100
1000
0100
0011
0100
1000
0011
0100
0010
1100
1000
0001
,
0110
0100
0001
1100
0010
0001
1001
0100
1000
0110
0001
1000
,
1100
0000
0220
0330
1001
0101
1001
0011
,
1001
0101
1001
0101
0110
1010
1010
0010
,
0101
0000
0000
0000
0000
0000
0000
0000
0101
0000
0000
0000
0000
0000
0000
0000
2000
0000
0000
0000
0200
0000
0000
0300
0020
0000
0000
0030
0200
0000
0000
0300
0002
0000
0000
3003
0000
0000
0000
0000
0011
0000
0000
0000
0000
0000
0000
0000
0110
0000
0000
0000
0000
0000
0000
0000
1001
0000
0000
0000
0000
0000
0000
0000
,
1100
1010
0110
1100
0101
1010
1010
0010
,
0101
0000
0000
0000
0000
0000
0000
0000
0101
0000
0000
0000
0000
0000
0000
0000
0200
0000
0000
0000
2000
0000
0000
3000
0002
0000
0000
0003
0020
0000
0000
0030
2000
0000
0000
3300
0000
0000
0000
0000
0011
0000
0000
0000
0000
0000
0000
0000
0110
0000
0000
0000
0000
0000
0000
0000
1100
0000
0000
0000
0000
0000
0000
0000
,
1100
1100
0110
0011
0011
0011
0110
1100
,
0101
1010
0101
1100
0011
1010
0110
1001
,
1001
0000
0110
0000
1010
0000
0101
0000
2002
0000
0000
3003
4000
0000
0000
0000
,
3004
0000
0000
0000
0403
0000
0000
0000
0310
0000
0100
0001
0100
0000
0011
0000
,
1000
0000
0101
0000
1000
0000
1010
0000
0011
0000
0100
1000
0001
0100
0010
0100
,
0001
0000
1001
0000
0110
0000
0101
0000
1010
0000
0100
1000
0010
0100
0001
0100
,
0010
0000
1001
0000
0101
0000
0110
0000
1000
0000
0100
1000
0010
0100
1000
0010
,
0100
0000
0011
0000
1100
0000
0110
0000
0011
0000
0100
0010
0100
0000
1000
0010
,
1000
0000
0100
0001
0100
0000
0010
1000
0100
0001
0010
1000
0100
0001
0010
1000
,
0100
0000
0010
0001
0010
0000
0100
1000
0100
0000
0010
0100
1000
0000
0110
0000
,
0011
0000
1100
0000
0110
0000
1010
0000
0101
0000
0010
0100
1000
0010
0100
0001
,
0100
0000
0110
0000
1100
0000
0101
0000
0110
0000
1000
0100
1000
0010
0100
0010
,
0100
0000
0011
0000
0101
0000
0110
0000
1100
0000
0010
0100
1000
0100
0001
0100
,
1000
0000
0110
0000
1010
0000
0101
0000
0101
0000
0010
0100
1000
0000
1000
0100
,
0010
0000
0010
0100
1000
0000
1000
0100
0010
0001
0010
0100
0001
0010
0100
0001
,
0010
0000
1100
0000
0110
0000
0101
0000
0110
0000
0100
1000
0010
1000
0100
1000
,
0010
0000
0001
0100
0002
0000
0000
0013
0001
0100
0010
0100
0001
0100
0010
0100
,
0001
0000
0110
0000
1100
0000
0110
0000
1000
0001
1000
0100
0010
0001
1000
0001
,
0010
0100
1000
0001
1000
0100
0010
0001
1000
0001
0010
0100
1000
0001
1000
0001
,
1000
0100
0010
0001
1010
0000
1001
0000
0011
0100
1000
0100
1000
0100
0001
0100
,
0001
0100
0010
0100
0010
0100
1000
0100
0010
0100
1000
0100
0010
0100
1000
0100
,
0010
0100
0001
0100
0010
0100
0001
0100
0010
0100
1000
0100
1000
0100
0010
1000
,
0100
0010
0001
0010
0100
0001
0010
0100
1000
0100
0001
1000
0100
0001
1000
0100
,
0001
0010
0100
1000
0011
0000
0110
0000
1100
1000
0001
0010
0100
1000
0010
0100
,
1000
0001
0010
0100
0010
0100
1000
0100
0010
0100
0010
0001
1000
0100
0010
0100
,
0010
0000
0001
0000
0010
0000
0100
0000
1100
0000
0000
0000
0011
0000
0000
0000
0110
0000
0000
0000
0011
0000
0000
0000
1000
0000
0010
1000
0100
0000
0001
0000
,
0010
0000
0100
0000
1000
0000
0000
0000
0010
0000
0001
0000
0100
0000
0000
0000
1100
0000
0000
0000
0011
0000
0000
0000
1000
0000
0001
1000
0100
0000
0010
0000
,
0100
0000
0001
0000
1000
0000
0000
0000
0100
0000
0010
0000
1000
0000
0000
0000
0011
0000
0000
0000
0110
0000
0000
0000
0010
0000
0001
1000
0100
0000
0001
0000
,
0010
0100
1000
0000
1000
0100
0010
0001
0100
0000
0011
0000
0110
2000
0000
3200
,
0000
0000
2300
0000
0000
0000
0000
0000
0000
0000
3002
0000
0000
0000
0023
0000
0000
0000
0230
0000
0000
0000
2300
0000
0000
3000
0002
0000
2003
0000
3002
0000
,
0000
0000
0000
0000
0000
0000
2003
0000
0000
0000
0000
3002
0000
0000
0000
0023
0000
0000
0000
0000
0000
0000
0000
2030
0000
0000
0000
3002
0000
0000
0000
0203
,
0000
0000
0000
2300
0000
0000
0000
0000
3200
0000
0320
0000
0032
0000
0000
0000
0000
0003
0000
0000
0000
0000
0000
0000
0000
0000
0000
0000
0000
0000
0000
0000
;

//---------------dance-single - ----------------
#NOTES:
     dance-single:
     :
     Hard:
     10:
     0.775,0.805,0.521,0.752,0.549,1059.000,133.000,192.000,0.000,0.000:


0000
0000
0000
0000
0000
1000
0001
0010
,
1000
0001
1000
0010
1000
0100
0010
0100
,
0001
0100
1000
0100
1000
0010
0100
0001
,
0100
0010
1000
0001
0100
1000
0001
0100
,
0010
1000
0100
1000
0010
0100
0001
0100
,
0010
0100
0001
1000
0100
1000
0001
0020
,
0000
0000
0000
0230
0000
0000
0000
0000
0000
0310
0000
0000
0010
0000
0000
0010
,
0000
0000
0010
0000
0000
0010
0000
0000
0010
0000
0000
0010
0000
0000
0010
0000
,
0000
0020
0000
0000
0000
0000
0000
0000
0000
0000
0000
0000
0000
0000
0000
0030
,
0000
0000
0000
0000
0000
0000
0100
0000
0000
1000
0000
0000
0001
0000
0000
0100
0000
0000
0001
0000
0000
0000
0000
0000
0001
0000
0000
0000
0000
0000
0001
0000
,
0000
0000
0001
0000
0000
0001
0000
0000
0001
0000
0000
0001
0000
0000
0001
0000
,
0000
0002
0000
0000
0000
0000
0000
0000
0000
0000
0000
0000
0000
0000
0003
0000
,
0000
0000
0000
0000
0100
0000
0000
0010
0000
0000
1000
0000
0000
0001
0000
0000
1000
0000
0000
0000
0000
0000
1000
0000
0000
0000
0000
0000
1000
0000
0000
0000
,
0000
1000
0000
0000
0100
0000
0000
0100
0000
0000
0100
0000
0000
0100
0000
0000
,
0010
0000
0000
0010
0000
0000
0010
0000
0000
0010
0000
0000
1000
0000
0000
0100
,
0000
0000
1000
0000
0000
0001
0000
0000
0100
0000
0000
0001
0000
0000
0010
0000
,
0000
0001
0000
0000
0010
0000
0000
0100
0000
0000
1000
0000
0000
0100
0000
0000
,
0002
0000
0000
0000
0000
0000
1003
0000
0000
0001
0000
0000
0100
0000
0000
1000
,
0000
0000
0100
0010
0100
0010
0000
0000
1000
0000
0001
0000
1000
0000
0100
0010
,
0100
0001
0100
0000
1000
0100
1000
0000
0001
0000
1000
0000
0100
0000
1000
0010
,
1000
0010
0100
0000
0001
0010
0001
0000
1000
0000
0100
0000
1000
0000
0010
0100
,
0010
1000
0010
0000
0100
0010
0100
0000
2002
0000
0000
0000
0000
0000
0000
3003
,
0022
0000
0000
0000
0000
0000
0000
0033
1000
0000
0001
1000
0001
0000
0001
0000
,
0002
0000
1000
0000
1000
0000
1000
0003
0220
0000
0000
0330
0000
0000
0100
0010
,
0200
0000
0000
0300
0011
0000
0010
0000
1001
0000
0100
0000
0101
0000
1000
0000
,
1010
0001
1100
0100
2000
3200
2300
3020
,
2030
0000
3020
0000
0230
0000
0302
0000
0203
0000
1300
0100
1000
0000
0010
0000
,
0200
0000
0010
0000
0010
0000
0010
0300
0022
0000
0000
0000
0033
0000
1000
0010
,
2000
0000
0100
0000
0100
3000
0001
0100
0002
0000
0010
0000
0010
0003
0010
0100
,
0020
0000
1000
0000
1000
0030
1000
0001
1000
0000
0001
0000
1000
0000
0001
0000
,
1001
0000
0202
0000
0303
0000
0000
0000
1010
0000
0010
0100
0010
0000
0001
0000
,
2000
0000
0010
0000
0010
0000
0010
3000
0220
0000
0000
0000
0330
0000
1000
0100
,
2000
0000
0000
3000
0011
0000
1000
0000
0101
0000
0001
0000
0011
0000
0100
0000
,
1010
0010
1100
0100
1001
1000
0110
0001
,
1100
0000
1000
0000
0101
0000
0100
0000
0010
0000
0010
0000
0002
0000
0000
1003
,
0020
0000
0100
0000
0100
0000
0130
0000
2002
0000
0000
0000
3003
0000
0001
1000
,
0002
0000
0010
0000
0013
0000
1000
0010
2000
0000
0010
0000
3010
0000
0010
0100
,
0020
0000
0001
0000
0031
0000
0001
0100
0002
0000
1000
0000
0013
0000
0110
0000
,
1010
0000
0000
0110
0000
0000
2020
0000
0000
0000
3030
0000
1000
0000
0000
1000
0000
0000
0001
0000
0000
0001
0000
0000
,
0220
0000
0000
0030
0310
0000
0010
0000
0100
0000
2200
0000
0000
0000
3300
0000
,
1000
0000
1000
0000
0100
0000
0022
0000
0000
0033
1000
0001
1000
0000
0100
0000
,
1000
0000
0100
0000
0010
0000
0100
0001
0010
0000
1000
0000
0001
0000
0100
1000
,
0001
0220
0000
0330
0100
0100
0010
0010
,
0022
0000
0000
0000
0000
0000
0000
0000
0000
0030
0003
0000
0001
0000
0000
0000
0000
0000
0001
0000
0000
0000
0000
0000
0100
0000
0000
0000
0000
0000
2200
0000
0000
0000
0000
0000
0000
0000
0000
0000
0000
0000
3300
0000
0000
0000
0000
0000
,
0010
0000
0010
0000
1000
0000
2002
0000
0000
3000
1003
0000
0100
0000
1000
0000
,
2020
0000
0000
0000
0000
0030
3001
0000
0220
0000
0000
0330
2200
0000
0000
3300
,
0022
0000
0003
0031
2200
0000
0000
0300
3001
0000
0001
0010
0002
0000
0000
0000
,
0103
0000
0100
0000
0200
0000
0300
0000
1001
0000
1000
0001
1000
0001
1000
0001
,
0200
0000
0000
0300
1010
0000
0000
0000
0101
0000
0100
0010
0100
0010
0100
0001
,
0100
0000
0010
0000
2000
0000
0000
3000
0011
0000
0001
0010
0001
0010
0001
0100
,
0002
0000
0000
0003
0110
0000
0000
0000
0110
0000
0010
0100
0010
0000
0100
0010
,
0100
0000
0010
0100
0010
0000
0100
0010
0100
0010
0100
0010
1000
0001
1000
0001
,
1000
0000
1000
0000
1000
0000
1000
0000
2000
0000
3010
0001
0010
0001
0010
0001
,
0020
0000
1030
0100
1000
0000
0000
1000
0001
0010
0100
1000
0001
0010
0100
1000
,
0002
0000
0000
0003
0220
0000
0000
0330
1001
0000
0000
1000
0001
0000
0001
0000
,
0010
0000
0000
0100
0000
0000
0000
0000
0000
0010
0000
0000
2000
0000
0000
0000
0000
0000
0000
0000
0000
0000
3000
0000
1000
0000
0000
0001
0000
0000
0000
0000
0000
0100
0000
0000
0010
0000
0000
0000
0000
0000
0010
0000
0000
0000
0000
0000
,
1000
0000
0000
0010
1001
0000
0000
0000
0101
0000
0000
0001
0010
0000
0010
0000
,
0010
0100
0000
0100
0002
0000
0000
0000
1003
0100
0000
0100
1000
0000
0100
0000
,
0100
0010
0000
0010
0100
0000
0100
0000
0001
0000
1000
0000
0100
1000
0100
1000
,
0010
1000
0100
0000
0010
0100
0010
0000
0001
0000
0001
0000
0010
0001
0010
0001
,
0100
0010
0001
0000
0001
1000
0001
0000
1000
0000
1000
0000
0100
0010
0100
0010
,
1000
0010
0100
0000
0001
0010
0001
0000
2200
0000
0000
0000
0000
0000
0000
3300
,
0220
0000
0000
0000
0000
0000
0000
0330
1000
0010
1000
0000
0100
0000
0100
0000
,
0002
0000
1000
0000
1000
0000
1000
0003
0220
0000
0000
0000
0330
0000
0010
0001
,
0020
0000
0000
0030
0110
0000
0010
0000
1100
0000
1000
0000
0101
0000
0001
0000
,
0110
0100
1010
0010
1100
1000
0110
0001
,
0011
0000
1000
0000
0110
0000
0010
0000
1000
0001
1000
0001
1000
0000
0100
0000
,
0200
0000
0001
0000
0001
0000
0001
0300
0022
0000
0000
0000
0033
0000
0100
0010
,
0200
0000
1000
0000
1000
0300
1000
0100
2000
0000
0001
0000
0001
3000
0001
0010
,
0002
0000
0100
0000
0100
0003
1000
0001
1000
0000
1000
0000
1000
0000
0001
0000
,
0001
0011
0000
0011
0001
0000
0001
1000
0001
0000
0001
0000
1000
0000
1000
0000
,
2002
0000
0000
3000
0103
0000
0100
0000
0010
0000
0022
0000
0000
0000
0033
0000
,
0010
0000
0010
0000
0100
0000
2002
0000
0000
0003
3001
0000
0010
0000
0001
0000
,
0220
0000
0000
0000
0330
0000
0100
0010
0100
0000
0100
0000
0100
0000
0001
0000
,
0001
0000
2200
0000
0000
0000
0000
3300
0000
0000
1000
0000
0001
0000
1000
0000
,
0220
0000
0000
0300
1030
0000
0001
0000
1000
0000
0202
0000
0000
0000
0303
0000
,
0100
0000
0010
0000
0100
0000
0022
0000
0000
0030
0013
0000
0100
0000
2020
0000
,
0000
0000
3030
1000
1001
0010
0101
0100
,
1010
0000
0000
0010
0202
0000
0303
0000
1000
0000
0100
1000
0200
0000
0000
0300
,
0010
0000
0010
0000
0020
0000
0030
0000
0101
0000
0001
0100
0001
0100
0001
1000
,
0020
0000
0000
0030
1001
0000
0000
0000
0110
0000
0010
0100
0010
0100
0010
1000
,
0001
0000
0010
0000
2000
0000
0000
3000
0101
0000
0001
0100
0001
0100
0001
1000
,
0002
0000
0000
0003
1001
0000
0000
0000
0011
0000
1000
0100
0010
0000
0001
0010
,
0100
0000
1000
0100
0010
0000
1000
0001
1000
0001
1000
0001
1000
0001
0010
0100
,
2000
0000
0000
0000
3000
0000
0000
0000
0110
0000
0100
0010
0100
0010
1000
0100
,
0010
0000
0001
0010
0100
0000
0000
0010
1000
0010
0100
0001
1000
0010
0100
0001
,
2000
0000
0000
3000
1001
0000
0000
0000
0220
0000
0000
0330
1010
0000
0100
0000
,
1001
0000
1000
0000
0202
0000
0300
1003
2002
0000
0000
3003
0101
0000
0010
0000
,
0110
0000
1000
0000
2020
0000
3000
0031
0202
0000
0000
0303
1001
0000
0010
0000
,
2200
0000
0000
3300
1010
0000
0010
0000
0022
0000
0000
0033
1100
0000
0100
0000
,
0202
0000
0000
0303
0220
0000
0330
0000
1100
0000
0001
0000
1000
0000
0100
0000
,
0220
0000
0000
0330
2002
0000
3003
0000
0101
0000
0010
0000
0100
0000
0100
0000
,
0022
0000
0000
0000
0000
0000
0033
0000
0000
0000
0000
0000
2002
0000
0000
0000
0000
0000
0000
0000
0000
3003
0000
0000
1000
0000
0000
0000
0001
0000
0000
0000
1000
0000
0000
0000
0010
0000
0000
0000
0100
0000
0000
0000
0010
0000
0000
0000
,
1000
0100
1000
0001
0100
0001
0010
0001
0010
1000
0001
1000
,
0100
1000
0100
0010
0100
0010
1000
0100
0010
0001
0010
0100
,
1000
0100
0010
0001
0010
0100
1000
0100
1000
0001
0100
0010
,
0200
0000
0320
0000
1030
1000
1000
1000
,
1000
1000
1000
1000
2000
0010
3010
0002
,
1000
0000
1003
0000
0100
0001
0100
0001
0020
0000
0031
0000
0001
0000
0001
0000
,
0001
0001
0001
0001
0002
0100
0103
2000
,
0010
0000
3010
0000
1000
0001
1000
0001
0100
0000
0100
0000
0100
0000
0100
0000
,
1000
1000
1000
1000
0010
0010
0010
0010
,
0001
1000
0100
1000
0010
1000
0001
1000
,
0100
0000
1000
0000
0010
0000
1000
0000
0002
0000
0000
0003
2002
0000
0000
3003
,
0202
0000
0000
0303
2200
0000
0000
3000
1300
0000
0010
0001
0010
0000
0100
0000
,
0200
0000
0000
0300
0011
0000
0000
0000
1001
0000
0001
0010
0100
1000
0100
0010
,
0002
0000
0000
0003
1100
0000
0000
0000
1100
0000
0100
1000
0100
1000
0010
0100
,
0010
0000
0001
0000
0002
0000
0000
0003
0110
0000
0100
0010
0100
1000
0100
1000
,
0002
0000
0000
0003
0011
0000
0000
0000
0011
0000
0001
0010
0100
0000
0100
0010
,
0001
0000
0001
0010
0100
0000
0100
0010
0001
0010
0100
0010
0001
0010
0100
0010
,
0001
0000
0001
0000
0001
0000
0001
0000
1000
0000
0100
1000
0020
0000
0000
0030
,
0010
0000
0010
0000
0020
0000
0000
0030
1001
0000
1000
0001
1000
0001
0100
0001
,
2000
0000
0000
3000
1100
0000
0000
0000
0110
0000
0100
0001
0100
0010
0100
0001
,
0100
0000
0100
0000
0200
0000
0000
0300
0011
0000
0001
0010
0001
1000
0100
0010
,
0002
0000
0000
0003
1100
0000
0000
0000
1001
0000
0100
0010
1000
0000
0100
0001
,
0010
0000
1000
0010
0100
0000
0001
1000
0010
0100
0010
0100
1000
0100
1000
0001
,
0010
0000
0010
0001
0010
0000
1000
0100
1000
0000
0001
1000
0001
0100
0001
0010
,
0100
0000
0100
0010
0002
0000
0000
1003
0100
0010
1000
0100
0010
1000
0100
0010
,
0002
0000
0000
0003
1100
0000
0000
0000
0101
0000
0000
0010
0100
0000
0001
0000
,
1000
0001
0000
0001
2000
0000
0000
3000
0100
0010
0000
1000
0001
0000
0001
0000
,
0100
0000
0000
0010
1100
0000
0000
0000
1001
0000
0000
0100
0001
0000
0001
0000
,
0001
0010
0000
0100
0020
0000
0000
0030
0001
0010
0000
0100
1000
0000
0001
0000
,
0100
0000
0000
1000
0101
0000
0000
0000
1001
0000
0000
0100
1000
0000
0100
0000
,
0100
1000
0000
1000
0200
0000
0000
0300
0100
0010
0000
0001
0010
0000
1000
0000
,
0100
0000
0000
0100
1001
0000
0000
0000
1100
0000
0000
0001
1000
0000
1000
0000
,
1000
0001
0000
0001
0020
0000
0000
0030
0010
0100
0000
0100
0001
0000
0001
0000
,
1000
0000
0000
0000
0000
0000
0000
0000
0000
0001
0000
0000
0110
0000
0000
0000
0000
0000
0000
0000
0000
0000
0000
0000
1000
0000
0001
0000
2000
0000
0000
0000
0000
0000
0000
0000
3200
0000
0000
0000
0000
0000
0000
0000
0000
0000
0000
0000
,
0320
0000
0000
0000
0000
0000
0032
0000
0000
0000
0003
0000
1000
0010
2000
0000
0000
0000
3002
0000
0000
0000
0000
0000
,
0023
0000
0000
0000
0000
0000
2030
0000
0000
0000
3000
0000
0010
0001
0020
0000
0000
0000
0230
0000
0000
0000
0000
0000
,
0320
0000
0000
0000
0000
0000
0000
0000
0000
0000
0000
0000
0032
0000
0000
0000
0000
0000
1000
0000
0003
0000
0000
0000
0001
0000
0000
0000
0000
0000
0010
0000
0000
0000
0000
0000
1001
0000
0000
1000
0000
0000
0000
0000
0000
0010
0000
0000
,
0000
2000
0000
0000
0000
3001
0000
0010
0000
0001
0000
0010
0000
1000
0100
0002
,
0000
0000
0000
0000
0003
0000
0100
0000
0000
0000
0000
0010
0000
0000
0000
2000
0000
0000
0000
0000
3000
0000
0000
0100
0000
0000
0000
0001
0000
0000
0000
1000
,
0000
0000
0000
0100
0000
0000
0000
0000
0100
0000
0010
0000
0002
0000
0000
0000
0000
0000
0003
0000
0000
0000
0000
0000
0000
0000
0000
0000
0000
0000
0000
0000
;

//---------------dance-single - ----------------
#NOTES:
     dance-single:
     :
     Medium:
     7:
     0.453,0.467,0.259,0.031,0.051,736.000,66.000,8.000,0.000,0.000:

0000
0000
0000
0000
0000
1000
0000
0000
,
0001
0000
0000
1000
0000
0000
0010
0000
,
0000
0100
0000
0000
0001
0000
0000
1000
,
0000
0000
0010
0000
0000
0100
0000
0000
,
1000
0000
0000
0001
0000
0000
0100
0000
,
0000
0010
0000
0000
0100
0000
0000
1000
,
0000
0000
0000
0000
0001
0000
0000
0000
0000
0001
0000
0000
1000
0000
0000
0001
,
0000
0000
1000
0000
0000
0001
0000
0000
1000
0000
0000
0001
0000
0000
1000
0000
,
0000
0001
0000
0000
0000
0000
0000
0000
0000
0000
0000
0000
0000
0000
0000
0000
,
0000
0000
0000
0010
0000
0000
0010
0000
0000
0010
0000
0000
0100
0000
0000
0010
,
0000
0000
0100
0000
0000
0010
0000
0000
0100
0000
0000
0010
0000
0000
0100
0000
,
0000
0010
0000
0000
0000
0000
0000
0000
0000
0000
0000
0000
0000
0000
0000
0000
,
0000
0000
1000
0000
0000
1000
0000
0000
1000
0000
0000
0100
0000
0000
1000
0000
,
0000
0100
0000
0000
1000
0000
0000
0001
0000
0000
1000
0000
0000
0001
0000
0000
,
0100
0000
0000
0010
0000
0000
0100
0000
0000
0010
0000
0000
0001
0000
0000
0010
,
0000
0000
0001
0000
0000
1000
0000
0000
0100
0000
0000
1000
0000
0000
0100
0000
,
0000
0010
0000
0000
0001
0000
0000
1000
0000
0000
0001
0000
0000
1000
0000
0000
,
0001
0000
0000
0001
0000
0000
0100
0000
,
0000
0010
0000
0000
1000
0100
1000
0100
,
1000
0100
0010
0001
0010
0001
0010
0001
,
0010
1000
0001
1000
0100
0010
0100
0010
,
0100
0000
1000
0000
0001
0000
0100
0000
0020
0000
0000
0000
0000
0000
0000
0030
,
0020
0000
0000
0030
1000
0001
1000
0001
,
0100
0010
0011
0100
,
1100
1000
1010
0001
,
0101
0000
0100
0000
1000
0010
1000
0100
,
1000
0010
1000
0100
1000
0001
0100
0001
,
0010
0100
1100
0010
,
0011
1000
1010
0001
,
0101
0100
0011
1000
,
1000
0010
0100
0001
1000
0001
0100
0001
,
0100
1000
0011
0100
,
1010
0001
0110
1000
,
0101
1000
1010
0100
,
0101
0000
0100
0000
0001
0100
1000
0010
,
1000
0100
0010
0000
1000
0000
0101
0000
,
1000
0011
0100
1010
,
0100
0011
1000
0110
,
0010
0000
0101
0000
0100
0001
0100
0001
,
0010
0100
1000
0010
1000
0010
1000
0100
,
1000
0100
0010
0001
0100
0001
0100
0001
,
0010
0100
1000
0010
1000
0010
0100
1000
,
0001
1000
0001
0010
0001
0010
0001
0100
,
0001
0100
1000
0001
1000
0001
1000
0001
,
0010
0100
1000
0100
0010
0001
1000
0001
,
1000
0001
0010
0100
1000
0001
1000
0100
,
1000
0100
1000
0010
0001
0001
0001
0000
,
1000
1000
1000
0000
0010
0100
0010
0100
,
1000
0000
0001
0000
1000
1000
0001
0001
,
0010
0010
0010
0000
0100
0100
1000
1000
,
0001
0000
0001
0000
1000
0100
1000
0010
,
0100
0010
0001
0010
0001
1000
0001
1000
,
0001
0000
0100
0000
1000
0100
1000
0100
,
0010
0001
0010
0000
1000
0100
0010
0001
,
1000
1001
1000
0101
,
0010
0100
0001
0000
1000
0100
1000
0000
,
0001
1010
0100
0011
,
0001
1000
0010
0000
0100
0001
1000
0000
,
0100
0000
0011
0000
1000
0100
1000
0100
,
0010
0001
0010
0001
0010
0100
1000
0100
,
1000
0100
0010
0001
0010
0001
0010
0100
,
1000
0000
0100
0000
1000
0000
0001
0000
2000
0000
0000
0000
0000
0000
0000
3000
,
2000
0000
0000
0000
0000
0000
0000
3000
0001
0000
0010
0000
0001
0000
0010
0000
,
0001
1000
1010
0001
,
1001
0100
0110
0010
,
0011
1000
1100
0001
,
1001
0000
0100
0000
0010
0100
1000
0001
,
0010
0000
0100
0000
0101
0000
1000
0001
,
1000
0000
0100
0010
0100
0000
0010
0001
,
0010
0000
1000
0100
1000
0000
0001
1000
,
0001
1000
0001
0100
0001
0100
1000
0100
,
0001
0000
0010
0100
0010
0100
0000
0000
,
1000
0001
1000
0001
0100
0000
0011
0000
,
0100
1010
0001
0110
,
0010
0000
0101
0000
1000
0100
0010
0001
,
1000
0000
0100
0010
0100
0001
0000
1000
,
0100
1000
0100
0010
0001
0000
0100
0000
,
0011
0000
1000
0000
0001
0100
0001
1000
,
0001
1000
0001
1000
0100
0100
0100
0000
,
0010
0010
0010
0000
0100
0100
1000
1000
,
0001
0000
0001
0000
0001
0001
0010
0010
,
0100
0100
1000
0000
1000
0100
0100
0010
,
0010
0000
0001
0000
1000
0001
1000
0100
,
1000
0001
1000
0100
1000
0001
1000
0100
,
1000
0000
0001
0000
0001
0010
0100
0001
,
0010
0100
1000
0000
1000
0100
0010
1000
,
0100
0000
0001
0000
0001
0010
0100
1000
,
0100
0010
0001
0010
0100
1000
0100
0010
,
0001
0010
0100
1000
0001
1000
0001
1000
,
0100
1000
0001
1000
0001
0100
0001
0100
,
1000
0001
1000
0001
0100
0010
0100
0010
,
0100
0000
1000
0000
0001
1000
0001
1000
,
0010
0010
1000
0101
,
0100
1010
0001
1100
,
0010
0110
0001
1010
,
0100
1001
1100
1100
,
0110
0000
0001
0000
0010
0100
0010
0100
,
0010
0100
0010
0100
0010
0000
0000
0000
,
0000
0000
0001
0001
0001
1000
0001
1000
,
0001
1000
0001
1000
0001
0000
0000
0000
,
0000
0000
0100
0100
0100
0010
0100
0010
,
0100
0010
0001
1000
0001
1000
0001
1000
,
0010
1000
0010
1000
0010
1000
0100
0001
,
0100
1000
0010
0001
0010
0000
0100
0000
,
1010
0000
0001
0000
0010
0100
1000
0100
,
0010
0000
0010
0000
0001
0010
0100
1000
,
0001
0000
0100
0000
1000
0100
0010
1000
,
0100
0010
0001
0000
0001
0010
0100
1000
,
0001
0000
1000
0000
0001
1000
0001
1000
,
0100
1000
0010
1000
0010
1000
0100
1000
,
0001
0000
0010
0000
0001
0001
0001
0000
,
1000
1000
1000
0000
0010
0010
1000
1000
,
0001
0000
0010
0000
0100
0100
0001
0001
,
1000
1000
0010
0000
0100
0100
0001
0001
,
1000
0000
1000
0000
1000
0100
0010
0001
,
0010
0100
1000
0100
0010
0001
0010
0001
,
0100
0000
0010
0000
1000
0100
1000
0010
,
1000
0100
0010
0000
1000
0001
1000
0001
,
0100
0000
0100
0000
1000
0100
1000
0000
,
0010
0001
0010
0000
1000
0001
1000
0000
,
0010
0000
0010
0000
0100
0001
0100
0000
,
1000
0010
1000
0000
0100
0001
0100
0000
,
0010
0000
0010
0000
1000
0001
1000
0000
,
0001
0100
0001
0000
1000
0010
1000
0000
,
0100
0000
0100
0000
1000
0001
1000
0000
,
0010
1000
0010
0000
0010
0100
0010
0000
,
1001
1001
1010
0101
,
1100
1010
0110
0101
,
0101
1010
1100
0011
,
1100
0000
0000
0000
1001
0000
0000
0000
0110
0000
0000
0000
1001
2002
0000
0000
,
0000
0000
0000
0000
,
0000
0000
3003
2002
0000
0000
0000
0000
0000
0000
0000
0000
0000
0000
0000
0000
,
0000
0000
3003
0000
;

//---------------dance-single - ----------------
#NOTES:
     dance-single:
     :
     Easy:
     4:
     0.217,0.234,0.000,0.008,0.004,386.000,0.000,2.000,0.000,0.000:



0000
0000
0000
0000
0000
1000
0000
0000
,
0000
0000
0000
0001
0000
0000
0000
0000
,
0000
1000
0000
0000
0000
0000
0000
0010
,
0000
0000
0000
0000
0000
0100
0000
0000
,
0000
0000
0000
0001
0000
0000
0000
0000
,
0000
1000
0000
0000
0000
0000
0000
0001
,
0000
0000
0000
0000
0000
0100
0000
0000
,
0000
0000
0000
0010
0000
0000
0000
0000
,
0000
1000
0000
0000
0000
0000
0000
0100
,
0000
0000
0000
0000
0000
0010
0000
0000
,
0000
0000
0000
0100
0000
0000
0000
0000
,
0000
0001
0000
0000
0000
0000
0000
1000
,
0000
0000
0000
0000
0000
0100
0000
0000
,
0000
0000
0000
1000
0000
0000
0000
0000
,
0000
0010
0000
0000
0000
0000
0000
0100
,
0000
0000
0000
0000
0000
0001
0000
0000
,
0000
0000
0000
0100
0000
0000
0000
0000
,
0000
0100
0000
0000
0000
0000
0000
1000
,
0000
0000
0001
0001
,
0001
1000
1000
1000
,
0100
0100
0010
0010
,
1000
1000
0001
0000
,
0010
0000
0100
0000
,
0100
0000
1000
0000
,
0001
0000
1000
1000
,
0010
0010
0001
0001
,
1000
1000
0010
0000
,
0100
0000
0001
0000
,
1000
0000
0100
0000
,
1000
0000
0010
0100
,
0001
1000
0001
0000
,
1000
0000
0100
0000
,
1000
1000
0010
0010
,
0100
0100
0001
0001
,
1000
1000
0001
0000
,
0100
0000
0010
0000
,
1000
0000
0100
0000
,
1000
0000
0001
0000
,
0100
0000
0001
0001
,
0001
0010
0010
0010
,
0100
0100
0100
1000
,
0001
1000
0001
1000
,
0001
1000
0010
0010
,
0010
0100
0100
0100
,
1000
0001
1000
0001
,
0100
0001
0100
0001
,
1000
0100
1000
0000
,
0001
0000
1000
0100
,
1000
0100
0010
0000
,
0010
0000
0100
0001
,
0100
0010
1000
0000
,
0001
0000
1000
0100
,
1000
0010
0100
0000
,
0001
0000
0100
1000
,
0100
0001
1000
0001
,
1000
0100
1000
0010
,
0100
0001
0010
0001
,
0100
1000
0100
1000
,
0010
0100
0001
0001
,
1000
1000
0010
0010
,
0100
0100
0001
0001
,
1000
1000
0001
0000
,
0100
0000
0010
0000
,
1000
0000
0001
0000
,
1000
1000
0010
0010
,
1000
1000
0001
0000
,
0010
0000
0100
0000
,
1000
0000
0001
0000
,
1000
0000
0010
0000
,
0100
0000
0010
0100
,
0010
0100
1000
0001
,
1000
0001
0100
0001
,
1000
0100
1000
0010
,
1000
0010
1000
0001
,
0100
0001
0100
1000
,
0100
1000
0010
0100
,
0010
0100
0001
1000
,
0100
1000
0001
0000
,
0010
0000
0100
0000
,
1000
0000
0001
0010
,
0001
0010
0100
0000
,
1000
0000
0010
1000
,
0010
0100
0001
0000
,
1000
0000
0001
1000
,
0001
0100
0010
0000
,
0010
0000
1000
0010
,
0100
0001
1000
0100
,
1000
0001
0001
0100
,
0001
1000
1000
0100
,
1000
0010
0010
0100
,
0001
0100
0100
1000
,
0100
1000
0001
0100
,
0001
1000
0001
0000
,
1000
0000
0001
0000
,
1000
0000
0100
0000
,
0010
0000
0100
0000
,
0010
0000
1000
1000
,
1000
1000
1000
0000
,
0000
0001
0001
0001
,
0001
0001
0001
0000
,
0000
1000
1000
1000
,
0100
0100
0100
0001
,
0001
0001
0010
0010
,
0010
0100
0100
0100
,
1000
1000
1000
0000
,
0001
0000
1000
0100
,
1000
0010
0100
0000
,
0001
0000
0010
0001
,
0010
0100
1000
0000
,
0001
0000
1000
0001
,
1000
0001
0100
0000
,
0010
0000
1000
0010
,
1000
0001
0100
0000
,
0010
0000
0100
1000
,
0001
0100
0001
0000
,
0001
0000
0001
0010
,
1000
0100
1000
0000
,
1000
0000
1000
0001
,
1000
0001
0100
0010
,
0100
1000
0100
0010
,
0001
0010
0100
1000
,
0100
0010
0001
1000
,
0001
1000
0001
0100
,
0001
0100
0010
0100
,
0010
1000
0100
1000
,
0010
1000
0010
1000
,
0001
1000
0001
0000
,
1000
0000
0100
0000
,
0010
0000
0100
0000
,
0001
0000
0000
0000
0000
0000
0000
0000
1000
0000
0000
0000
0001
2000
0000
0000
,
0000
0000
0000
0000
,
0000
0000
3000
0002
0000
0000
0000
0000
0000
0000
0000
0000
0000
0000
0000
0000
,
0000
0000
0003
0000
;
